LAS CRONIAS DE NARNIA 3 (2010) [Aventuras][Español] - FORO - www.unViciomas.com

Pertenece al Grupo " Visitante "     MP MP( )   
Elige un Tema y Crea tu Post!




  • Página 1 de 1
  • 1
FORO - www.unViciomas.com » ZONA PELICULAS # » Películas 2010 » LAS CRONIAS DE NARNIA 3 (2010) [Aventuras][Español]
LAS CRONIAS DE NARNIA 3 (2010) [Aventuras][Español]
unViciomás
Fecha: Jueves, 09/12/2010, 12:13 PM | Link del Mensaje # 1

Oficial
STATUS: Offline
POSTS:
2215

PREMIOS:
0

REPUTACIÓN:
2

OBSERVACIONES:

RANGO:

LAS CRONIAS DE NARNIA 3 (2010) [Aventuras][Ts-screener-Hq Real][Español]

Las crónicas de Narnia: La travesía del viajero del alba
TÍTULO ORIGINAL The Chronicles of Narnia: The Voyage of the Dawn Treader
AÑO 2010
DURACIÓN 115 min.
DIRECTOR Michael Apted
GUIÓN Richard LaGravenese, Christopher Markus, Stephen McFeely, Michael Petroni (Novela: C.S. Lewis)
MÚSICA David Arnold
FOTOGRAFÍA Dante Spinotti
REPARTO Ben Barnes, Skandar Keynes, Georgie Henley, William Moseley, Anna Popplewell, Eddie Izzard
PRODUCTORA 20th Century Fox
WEB OFICIAL http://www.narnia.com/
GÉNERO Fantástico. Aventuras. Drama | Adolescencia. Secuela. 3-D. Cine familiar
SINOPSIS Tercera entrega de la saga literaria creada por C.S. Lewis. En esta ocasión, los hermanos Edmund y Lucy Pevensie y su primo Eustace embarcan en la nave El Viajero del Alba para buscar a los siete caballeros que han sido expulsados del reino por Miraz, el usurpador del trono de Narnia.

DATOS TECNICOS
Format : AVI
Format/Info : Audio Video Interleave
File size : 1.38 GiB
Duration : 1h 34mn
Overall bit rate : 2 093 Kbps
Writing application : VirtualDubMod 1.4.13
Writing library : VirtualDub build 14328/release

Video
ID : 0
Format : MPEG-4 Visual
Format profile : Advanced Simple@L5
Format settings, BVOP : No
Format settings, QPel : No
Format settings, GMC : No warppoints
Format settings, Matrix : Default (H.263)
Codec ID : XVID
Codec ID/Hint : XviD
Duration : 1h 34mn
Bit rate : 1 955 Kbps
Width : 720 pixels
Height : 296 pixels
Display aspect ratio : 2.40:1
Frame rate : 25.000 fps
Color space : YUV
Chroma subsampling : 4:2:0
Bit depth : 8 bits
Scan type : Progressive
Bits/(Pixel*Frame) : 0.367
Stream size : 1.29 GiB (93%)
Writing library : XviD 1.2.1 (UTC 2008-12-04)

Audio
ID : 1
Format : MPEG Audio
Format version : Version 1
Format profile : Layer 3
Mode : Joint stereo
Mode extension : MS Stereo
Codec ID : 55
Codec ID/Hint : MP3
Duration : 1h 34mn
Bit rate mode : Constant
Bit rate : 128 Kbps
Channel(s) : 2 channels
Sampling rate : 44.1 KHz
Stream size : 86.3 MiB (6%)
Alignment : Split accross interleaves
Interleave, duration : 40 ms (1.00 video frame)
Interleave, preload duration : 500 ms

enlaces

fileserve

http://www.fileserve.com/file/u57kWQG
http://www.fileserve.com/file/BrpQnYz
http://www.fileserve.com/file/ScekG2R
http://www.fileserve.com/file/xkQKdnY

hotfile

http://hotfile.com/dl....ar.html
http://hotfile.com/dl....ar.html
http://hotfile.com/dl....ar.html
http://hotfile.com/dl....ar.html
http://hotfile.com/dl....ar.html
http://hotfile.com/dl....ar.html
http://hotfile.com/dl....ar.html
http://hotfile.com/dl....ar.html

Megaupload

http://www.megaupload.com/?d=G54KSQTA
http://www.megaupload.com/?d=33564U9B
http://www.megaupload.com/?d=2ANERTIT
http://www.megaupload.com/?d=TUWFTAH3
http://www.megaupload.com/?d=P7ZJVW7I
http://www.megaupload.com/?d=VK0EVK60
http://www.megaupload.com/?d=2CPB6BZ0
http://www.megaupload.com/?d=S3ZA976W
http://www.megaupload.com/?d=IF8MXDQZ
http://www.megaupload.com/?d=OLPQYTAE
http://www.megaupload.com/?d=YB7Y442E
http://www.megaupload.com/?d=EH50T93G
http://www.megaupload.com/?d=4X0ZDHHZ
http://www.megaupload.com/?d=2SW0XDRU
http://www.megaupload.com/?d=9OR3S6JN

fileserve

http://www.fileserve.com/file/7jxS9fs
http://www.fileserve.com/file/UMj7qEP





AYUDA A LA PAGINA, REGISTRATE!!

Un Vicio Mas - File Sharing


Compartir en:
 
FORO - www.unViciomas.com » ZONA PELICULAS # » Películas 2010 » LAS CRONIAS DE NARNIA 3 (2010) [Aventuras][Español]
  • Página 1 de 1
  • 1
Búscar:






Registrate y sube tus Posts Gracias por Registrarte! Ya puedes Subir lo que mas te Guste!!



Copyright UnVicioMás © 2022 Contáctenos