Imparable (2010) [Trhiller-Accion][Ts-scrrener-hq][Español.m - FORO - www.unViciomas.com

Pertenece al Grupo " Visitante "     MP MP( )   
Elige un Tema y Crea tu Post!




  • Página 1 de 1
  • 1
FORO - www.unViciomas.com » ZONA PELICULAS # » Películas 2010 » Imparable (2010) [Trhiller-Accion][Ts-scrrener-hq][Español.m
Imparable (2010) [Trhiller-Accion][Ts-scrrener-hq][Español.m
unViciomás
Fecha: Sábado, 13/11/2010, 11:31 PM | Link del Mensaje # 1

Oficial
STATUS: Offline
POSTS:
2215

PREMIOS:
0

REPUTACIÓN:
2

OBSERVACIONES:

RANGO:

Imparable (2010) [Trhiller-Accion][Ts-scrrener-hq][Español.mic.altacalidad]

DATOS TECNICOS:
Format : AVI
Format/Info : Audio Video Interleave
File size : 1.36 GiB
Duration : 1h 32mn
Overall bit rate : 2 114 Kbps

Video
ID : 0
Format : MPEG-4 Visual
Format profile : Advanced Simple@L5
Format settings, BVOP : Yes
Format settings, QPel : No
Format settings, GMC : No warppoints
Format settings, Matrix : Default (H.263)
Codec ID : XVID
Codec ID/Hint : XviD
Duration : 1h 32mn
Bit rate : 1 974 Kbps
Width : 720 pixels
Height : 340 pixels
Display aspect ratio : 2.2:1
Frame rate : 29.970 fps
Color space : YUV
Chroma subsampling : 4:2:0
Bit depth : 8 bits
Scan type : Progressive
Bits/(Pixel*Frame) : 0.269
Stream size : 1.27 GiB (93%)
Writing library : XviD 1.2.1 (UTC 2008-12-04)

Audio
ID : 1
Format : AC-3
Format/Info : Audio Coding 3
Mode extension : CM (complete main)
Codec ID : 2000
Duration : 1h 32mn
Bit rate mode : Constant
Bit rate : 128 Kbps
Channel(s) : 2 channels
Channel positions : Front: L R
Sampling rate : 48.0 KHz
Bit depth : 16 bits
Stream size : 84.4 MiB (6%)
Alignment : Aligned on interleaves
Interleave, duration : 33 ms (1.00 video frame)

RIPEADO or Trafikant
Relase: de Subnet
Nota:calidad del video parecida a la de tdx con un audio muy superior a su version

enlaces

fileserve

http://www.fileserve.com/file/juwQdS6
http://www.fileserve.com/file/D6AHxDq

fileserve

http://www.fileserve.com/file/aWKqpXk
http://www.fileserve.com/file/yUyBqEn
http://www.fileserve.com/file/cHDKQqj
http://www.fileserve.com/file/tDWxuHP

Hotfile

http://hotfile.com/dl....ar.html
http://hotfile.com/dl....ar.html
http://hotfile.com/dl....ar.html
http://hotfile.com/dl....ar.html
http://hotfile.com/dl....ar.html
http://hotfile.com/dl....ar.html
http://hotfile.com/dl....ar.html

fileserve

http://www.fileserve.com/file/MytafA3
http://www.fileserve.com/file/yZ6tapU





AYUDA A LA PAGINA, REGISTRATE!!

Un Vicio Mas - File Sharing


Compartir en:
 
FORO - www.unViciomas.com » ZONA PELICULAS # » Películas 2010 » Imparable (2010) [Trhiller-Accion][Ts-scrrener-hq][Español.m
  • Página 1 de 1
  • 1
Búscar:






Registrate y sube tus Posts Gracias por Registrarte! Ya puedes Subir lo que mas te Guste!!



Copyright UnVicioMás © 2022 Contáctenos